Search

Jaws 1975 x264 720p Esub BluRay Dual Audio English Hindi GOPISAHI

Format                         : Matroska
Format version                 : Version 4 / Version 2
File size                      : 794 MiB
Duration                       : 2 h 4 min
Overall bit rate               : 895 kb/s
Movie name                     : Jaws 1975 GOPISAHI

Video
Format                         : AVC
Format/Info                    : Advanced Video Codec
Codec ID                       : V_MPEG4/ISO/AVC
Duration                       : 2 h 4 min
Bit rate                       : 699 kb/s
Width                          : 1 280 pixels
Height                         : 542 pixels
Display aspect ratio           : 2.35:1
Frame rate mode                : Constant
Frame rate                     : 23.976 (24000/1001) FPS
Color space                    : YUV
Chroma subsampling             : 4:2:0
Bit depth                      : 8 bits
Scan type                      : Progressive
Bits/(Pixel*Frame)             : 0.042
Stream size                    : 620 MiB (78%)
Title                          : GOPISAHI
Writing library                : x264 core 157 r2935 545de2f

Audio #1
Format                         : AAC
Duration                       : 2 h 4 min
Bit rate                       : 96.0 kb/s
Channel(s)                     : 2 channels
Channel positions              : Front: L R
Sampling rate                  : 48.0 kHz
Frame rate                     : 46.875 FPS (1024 SPF)
Compression mode               : Lossy
Delay relative to video        : -18 ms
Stream size                    : 85.3 MiB (11%)
Title                          : GOPISAHI
Language                       : Hindi

Audio #2
Format                         : AAC
Duration                       : 2 h 4 min
Bit rate                       : 96.0 kb/s
Channel(s)                     : 2 channels
Channel positions              : Front: L R
Sampling rate                  : 48.0 kHz
Frame rate                     : 46.875 FPS (1024 SPF)
Compression mode               : Lossy
Delay relative to video        : -21 ms
Stream size                    : 85.5 MiB (11%)
Title                          : GOPISAHI
Language                       : English

Text
Language                       : English

Menu
00:00:00.000                   : en:00:00:00.000
00:01:48.900                   : en:00:01:48.900
00:07:33.787                   : en:00:07:33.787
00:11:20.221                   : en:00:11:20.179
00:13:35.481                   : en:00:13:35.356
00:18:11.591                   : en:00:18:11.590
00:24:30.260                   : en:00:24:30.260
00:27:41.243                   : en:00:27:41.243
00:32:46.673                   : en:00:32:46.673
00:45:18.049                   : en:00:45:18.007
00:53:31.041                   : en:00:53:31.041
01:01:28.643                   : en:01:01:28.643
01:06:11.926                   : en:01:06:11.801
01:21:03.192                   : en:01:21:03.192
01:26:24.971                   : en:01:26:24.971
01:36:24.279                   : en:01:36:24.237
01:50:00.969                   : en:01:50:00.803
01:56:47.167                   : en:01:56:47.167
01:57:52.357                   : en:01:57:52.357
02:02:35.640                   : en:02:02:35.640








Post a Comment

0 Comments