Search

Knock Off 1998 x264 720p Esub BluRay Dual Audio English Hindi GOPISAHI


Format                         : Matroska
Format version                 : Version 4 / Version 2
File size                      : 789 MiB
Duration                       : 1 h 30 min
Overall bit rate               : 1 217 kb/s
Movie name                     : Knock Off 1998 GOPISAHI

Video
Format                         : AVC
Format/Info                    : Advanced Video Codec
Codec ID                       : V_MPEG4/ISO/AVC
Duration                       : 1 h 30 min
Bit rate                       : 899 kb/s
Width                          : 1 280 pixels
Height                         : 544 pixels
Display aspect ratio           : 2.35:1
Frame rate mode                : Constant
Frame rate                     : 24.000 FPS
Color space                    : YUV
Chroma subsampling             : 4:2:0
Bit depth                      : 8 bits
Scan type                      : Progressive
Bits/(Pixel*Frame)             : 0.054
Stream size                    : 580 MiB (73%)
Title                          : GOPISAHI
Writing library                : x264 core 157 r2935 545de2f

Audio #1
Format                         : AAC
Format/Info                    : Advanced Audio Codec
Duration                       : 1 h 30 min
Bit rate                       : 128 kb/s
Channel(s)                     : 2 channels
Channel positions              : Front: L R
Sampling rate                  : 48.0 kHz
Frame rate                     : 46.875 FPS (1024 SPF)
Compression mode               : Lossy
Delay relative to video        : -21 ms
Stream size                    : 83.1 MiB (11%)
Title                          : GOPISAHI
Language                       : Hindi

Audio #2
Format                         : AAC
Duration                       : 1 h 30 min
Bit rate                       : 192 kb/s
Channel(s)                     : 6 channels
Channel positions              : Front: L C R, Side: C, Back: L R
Sampling rate                  : 48.0 kHz
Frame rate                     : 46.875 FPS (1024 SPF)
Compression mode               : Lossy
Delay relative to video        : 12 ms
Stream size                    : 124 MiB (16%)
Title                          : GOPISAHI
Language                       : English

Text
Language                       : English

Menu
00:00:00.000                   : en:Chapter 1
00:03:58.500                   : en:Chapter 2
00:10:57.542                   : en:Chapter 3
00:18:28.667                   : en:Chapter 4
00:25:27.917                   : en:Chapter 5
00:32:37.000                   : en:Chapter 6
00:40:38.958                   : en:Chapter 7
00:51:20.042                   : en:Chapter 8
00:56:20.333                   : en:Chapter 9
01:03:16.875                   : en:Chapter 10
01:09:36.042                   : en:Chapter 11
01:22:57.083                   : en:Chapter 12
01:24:24.875                   : en:Chapter 13
01:30:14.000                   : en:Chapter 14







Post a Comment

0 Comments