Search

Legend Of The Demon Cat 2017 x264 720p Esub BluRay Dual Audio Chinese Hindi GOPISAHI

Format                         : Matroska
Format version                 : Version 4 / Version 2
File size                      : 826 MiB
Duration                       : 2 h 9 min
Overall bit rate               : 895 kb/s
Movie name                     : Legend Of The Demon Cat 2017 GOPISAHI

Video
Format                         : AVC
Format/Info                    : Advanced Video Codec
Codec ID                       : V_MPEG4/ISO/AVC
Duration                       : 2 h 9 min
Bit rate                       : 699 kb/s
Width                          : 1 264 pixels
Height                         : 528 pixels
Display aspect ratio           : 2.40:1
Frame rate mode                : Constant
Frame rate                     : 24.000 FPS
Color space                    : YUV
Chroma subsampling             : 4:2:0
Bit depth                      : 8 bits
Scan type                      : Progressive
Bits/(Pixel*Frame)             : 0.044
Stream size                    : 645 MiB (78%)
Title                          : GOPISAHI
Writing library                : x264 core 157 r2935 545de2f

Audio #1
Format                         : AAC
Duration                       : 2 h 9 min
Bit rate                       : 96.0 kb/s
Channel(s)                     : 2 channels
Channel positions              : Front: L R
Sampling rate                  : 48.0 kHz
Frame rate                     : 46.875 FPS (1024 SPF)
Compression mode               : Lossy
Delay relative to video        : -21 ms
Stream size                    : 89.0 MiB (11%)
Title                          : GOPISAHI
Language                       : Hindi

Audio #2
Format                         : AAC
Duration                       : 2 h 9 min
Bit rate                       : 96.0 kb/s
Channel(s)                     : 2 channels
Channel positions              : Front: L R
Sampling rate                  : 48.0 kHz
Frame rate                     : 46.875 FPS (1024 SPF)
Compression mode               : Lossy
Delay relative to video        : -12 ms
Stream size                    : 89.0 MiB (11%)
Title                          : GOPISAHI
Language                       : Chinese

Text
Language                       : English

Menu
00:00:00.000                   : en:Chapter 1
00:09:09.833                   : en:Chapter 2
00:19:17.250                   : en:Chapter 3
00:27:04.375                   : en:Chapter 4
00:31:07.667                   : en:Chapter 5
00:36:53.125                   : en:Chapter 6
00:42:00.250                   : en:Chapter 7
00:49:10.167                   : en:Chapter 8
00:54:01.875                   : en:Chapter 9
00:59:12.000                   : en:Chapter 10
01:03:47.250                   : en:Chapter 11
01:08:10.542                   : en:Chapter 12
01:12:29.750                   : en:Chapter 13
01:19:49.625                   : en:Chapter 14
01:25:21.958                   : en:Chapter 15
01:31:30.792                   : en:Chapter 16
01:39:10.750                   : en:Chapter 17
01:45:36.042                   : en:Chapter 18
01:53:28.750                   : en:Chapter 19
02:05:45.750                   : en:Chapter 20







Post a Comment

0 Comments