Search This Blog

Mohalla Assi 2018 x264 720p HD Hindi GOPISAHI


Format                         : Matroska
Format version                 : Version 4 / Version 2
File size                      : 671 MiB
Duration                       : 1 h 57 min
Overall bit rate               : 798 kb/s
Movie name                     : Mohalla Assi 2018 GOPISAHI

Video
Format                         : AVC
Format/Info                    : Advanced Video Codec
Codec ID                       : V_MPEG4/ISO/AVC
Duration                       : 1 h 57 min
Bit rate                       : 699 kb/s
Width                          : 1 280 pixels
Height                         : 544 pixels
Display aspect ratio           : 2.35:1
Frame rate mode                : Constant
Frame rate                     : 24.000 FPS
Color space                    : YUV
Chroma subsampling             : 4:2:0
Bit depth                      : 8 bits
Scan type                      : Progressive
Bits/(Pixel*Frame)             : 0.042
Stream size                    : 588 MiB (88%)
Title                          : GOPISAHI
Writing library                : x264 core 157 r2935 545de2f

Audio
Format                         : AAC
Duration                       : 1 h 57 min
Bit rate                       : 96.0 kb/s
Channel(s)                     : 2 channels
Channel positions              : Front: L R
Sampling rate                  : 48.0 kHz
Frame rate                     : 46.875 FPS (1024 SPF)
Compression mode               : Lossy
Delay relative to video        : -42 ms
Stream size                    : 81.2 MiB (12%)
Title                          : GOPISAHI
Language                       : Hindi

Menu
00:00:00.000                   : en:Studio Logo
00:00:30.021                   : en:Disclaimer
00:00:56.021                   : en:Title Sequence
00:01:26.021                   : en:Scene 4
00:09:22.021                   : en:Scene 5
00:13:04.021                   : en:Scene 6
00:21:32.021                   : en:Scene 7
00:30:24.021                   : en:Scene 8
00:36:56.021                   : en:Scene 9
00:39:58.021                   : en:Scene 10
00:48:32.021                   : en:Scene 11
00:53:56.021                   : en:Scene 12
01:01:34.021                   : en:Scene 13
01:08:04.021                   : en:Scene 14
01:17:42.021                   : en:Scene 15
01:23:18.021                   : en:Scene 16
01:36:10.021                   : en:Scene 17
01:45:38.021                   : en:Scene 18
01:52:12.021                   : en:End Credits









Post a Comment

0 Comments