Search This Blog

The Pianist 2002 x264 1080p Esub BluRay Dual Audio English Hindi GOPISAHI

Format                         : Matroska
Format version                 : Version 4 / Version 2
File size                      : 1 003 MiB
Duration                       : 2 h 28 min
Overall bit rate               : 942 kb/s
Movie name                     : The Pianist 2002 GOPISAHI

Video
Format                         : AVC
Format/Info                    : Advanced Video Codec
Codec ID                       : V_MPEG4/ISO/AVC
Duration                       : 2 h 28 min
Bit rate                       : 806 kb/s
Width                          : 1 600 pixels
Height                         : 864 pixels
Display aspect ratio           : 1.85:1
Frame rate mode                : Constant
Frame rate                     : 23.976 FPS
Color space                    : YUV
Chroma subsampling             : 4:2:0
Bit depth                      : 8 bits
Scan type                      : Progressive
Bits/(Pixel*Frame)             : 0.024
Stream size                    : 858 MiB (86%)
Title                          : GOPISAHI
Writing library                : x264 core 98 r1649 20cbe10

Audio #1
Format                         : AAC
Duration                       : 2 h 28 min
Bit rate                       : 96.0 kb/s
Channel(s)                     : 2 channels
Channel positions              : Front: L R
Sampling rate                  : 48.0 kHz
Frame rate                     : 46.875 FPS (1024 SPF)
Compression mode               : Lossy
Delay relative to video        : 24 ms
Stream size                    : 102 MiB (10%)
Title                          : GOPISAHI
Language                       : Hindi

Audio #2
Format                         : AAC
Codec ID                       : A_AAC-2
Duration                       : 2 h 28 min
Bit rate                       : 36.0 kb/s
Channel(s)                     : 2 channels
Channel positions              : Front: L R
Sampling rate                  : 48.0 kHz / 24.0 kHz
Frame rate                     : 23.438 FPS (1024 SPF)
Compression mode               : Lossy
Stream size                    : 38.3 MiB (4%)
Title                          : GOPISAHI
Language                       : English

Text
Language                       : English





Post a Comment

0 Comments