Search This Blog

Uri 2019 x264 720p HD Hindi GOPISAHI

Format                         : Matroska
Format version                 : Version 4 / Version 2
File size                      : 887 MiB
Duration                       : 2 h 18 min
Overall bit rate               : 897 kb/s
Movie name                     : Uri 2019 GOPISAHI

Video
Format                         : AVC
Codec ID                       : V_MPEG4/ISO/AVC
Duration                       : 2 h 18 min
Bit rate                       : 799 kb/s
Width                          : 1 280 pixels
Height                         : 544 pixels
Display aspect ratio           : 2.35:1
Frame rate mode                : Constant
Frame rate                     : 24.000 FPS
Color space                    : YUV
Chroma subsampling             : 4:2:0
Bit depth                      : 8 bits
Scan type                      : Progressive
Bits/(Pixel*Frame)             : 0.048
Stream size                    : 790 MiB (89%)
Title                          : GOPISAHI
Writing library                : x264 core 157 r2935 545de2f

Audio
ID                             : 2
Format                         : AAC
Duration                       : 2 h 18 min
Bit rate                       : 96.0 kb/s
Channel(s)                     : 2 channels
Channel positions              : Front: L R
Sampling rate                  : 48.0 kHz
Frame rate                     : 46.875 FPS (1024 SPF)
Compression mode               : Lossy
Delay relative to video        : -6 ms
Stream size                    : 95.5 MiB (11%)
Title                          : GOPISAHI
Language                       : Hindi






Post a Comment

4 Comments

  1. Osm upload at the surgical strike moment
    I,m waiting very long time this movie

    ReplyDelete
  2. Bro god bless you..
    Thanks for owsome upload...
    Very very thank you.....
    😚😚😚

    ReplyDelete
  3. Bro
    Linkclub download link. Is very fast
    Plz add this. Link in upcoming uploaded
    Thanks
    God bless you...

    ReplyDelete