Search This Blog

3 Idiots 2009 x264 720p Esub BluRay 6.0 Dual Audio Hindi Chinese GOPISAHI


Format                         : Matroska
Format version                 : Version 4 / Version 2
File size                      : 1.72 GiB
Duration                       : 2 h 51 min
Overall bit rate               : 1 442 kb/s
Movie name                     : 3 Idiots 2009 GOPISAHI

Video
ID                             : 1
Format                         : AVC
Format/Info                    : Advanced Video Codec
Format profile                 : [email protected]
Format settings                : CABAC / 16 Ref Frames
Format settings, CABAC         : Yes
Format settings, ReFrames      : 16 frames
Codec ID                       : V_MPEG4/ISO/AVC
Duration                       : 2 h 51 min
Bit rate                       : 899 kb/s
Width                          : 1 280 pixels
Height                         : 544 pixels
Display aspect ratio           : 2.35:1
Frame rate mode                : Constant
Frame rate                     : 24.000 FPS
Color space                    : YUV
Chroma subsampling             : 4:2:0
Bit depth                      : 8 bits
Scan type                      : Progressive
Bits/(Pixel*Frame)             : 0.054
Stream size                    : 1.07 GiB (62%)
Title                          : GOPISAHI
Writing library                : x264 core 157 r2935 545de2f

Audio #1
ID                             : 2
Format                         : AAC
Format/Info                    : Advanced Audio Codec
Format profile                 : LC
Codec ID                       : A_AAC-2
Duration                       : 2 h 51 min
Bit rate                       : 192 kb/s
Channel(s)                     : 6 channels
Channel positions              : Front: L C R, Side: C, Back: L R
Sampling rate                  : 48.0 kHz
Frame rate                     : 46.875 FPS (1024 SPF)
Compression mode               : Lossy
Delay relative to video        : -21 ms
Stream size                    : 235 MiB (13%)
Title                          : GOPISAHI
Language                       : Hindi
Default                        : Yes
Forced                         : No

Audio #2
ID                             : 3
Format                         : AAC
Format/Info                    : Advanced Audio Codec
Format profile                 : LC
Codec ID                       : A_AAC-2
Duration                       : 2 h 51 min
Bit rate                       : 192 kb/s
Channel(s)                     : 6 channels
Channel positions              : Front: L C R, Side: C, Back: L R
Sampling rate                  : 48.0 kHz
Frame rate                     : 46.875 FPS (1024 SPF)
Compression mode               : Lossy
Delay relative to video        : -21 ms
Stream size                    : 235 MiB (13%)
Title                          : GOPISAHI
Language                       : Chinese
Default                        : No
Forced                         : No

Text #1
ID                             : 4
Format                         : PGS
Muxing mode                    : zlib
Codec ID                       : S_HDMV/PGS
Codec ID/Info                  : Picture based subtitle format used on BDs/HD-DVDs
Duration                       : 2 h 46 min
Bit rate                       : 33.9 kb/s
Count of elements              : 4266
Stream size                    : 40.5 MiB (2%)
Title                          : GOPISAHI
Language                       : English
Default                        : Yes
Forced                         : No

Text #2
ID                             : 5
Format                         : PGS
Muxing mode                    : zlib
Codec ID                       : S_HDMV/PGS
Codec ID/Info                  : Picture based subtitle format used on BDs/HD-DVDs
Duration                       : 2 h 46 min
Bit rate                       : 21.3 kb/s
Count of elements              : 4274
Stream size                    : 25.4 MiB (1%)
Title                          : GOPISAHI
Language                       : Arabic
Default                        : No
Forced                         : No

Text #3
ID                             : 6
Format                         : PGS
Muxing mode                    : zlib
Codec ID                       : S_HDMV/PGS
Codec ID/Info                  : Picture based subtitle format used on BDs/HD-DVDs
Duration                       : 2 h 48 min
Bit rate                       : 32.5 kb/s
Count of elements              : 4278
Stream size                    : 39.1 MiB (2%)
Title                          : GOPISAHI
Language                       : Dutch
Default                        : No
Forced                         : No

Text #4
ID                             : 7
Format                         : PGS
Muxing mode                    : zlib
Codec ID                       : S_HDMV/PGS
Codec ID/Info                  : Picture based subtitle format used on BDs/HD-DVDs
Duration                       : 2 h 46 min
Bit rate                       : 33.8 kb/s
Count of elements              : 4453
Stream size                    : 40.4 MiB (2%)
Title                          : GOPISAHI
Language                       : French
Default                        : No
Forced                         : No

Text #5
ID                             : 8
Format                         : PGS
Muxing mode                    : zlib
Codec ID                       : S_HDMV/PGS
Codec ID/Info                  : Picture based subtitle format used on BDs/HD-DVDs
Duration                       : 2 h 50 min
Bit rate                       : 60.2 kb/s
Count of elements              : 4888
Stream size                    : 73.6 MiB (4%)
Title                          : GOPISAHI
Language                       : Chinese
Default                        : No
Forced                         : No

Text #6
ID                             : 9
Format                         : PGS
Muxing mode                    : zlib
Codec ID                       : S_HDMV/PGS
Codec ID/Info                  : Picture based subtitle format used on BDs/HD-DVDs
Duration                       : 2 h 50 min
Bit rate                       : 80.5 kb/s
Count of elements              : 4744
Stream size                    : 98.4 MiB (6%)
Title                          : GOPISAHI
Language                       : Chinese
Default                        : No
Forced                         : No

Text #7
ID                             : 10
Format                         : PGS
Muxing mode                    : zlib
Codec ID                       : S_HDMV/PGS
Codec ID/Info                  : Picture based subtitle format used on BDs/HD-DVDs
Duration                       : 2 h 50 min
Bit rate                       : 59.6 kb/s
Count of elements              : 4744
Stream size                    : 72.9 MiB (4%)
Title                          : GOPISAHI
Language                       : Chinese
Default                        : No
Forced                         : No

Menu
00:00:00.000                   : :00:00:00.000
00:01:07.375                   : :00:01:07.375
00:08:23.042                   : :00:08:23.042
00:13:24.458                   : :00:13:24.417
00:18:07.667                   : :00:18:07.667
00:23:13.042                   : :00:23:13.000
00:28:49.250                   : :00:28:49.250
00:30:02.208                   : :00:30:02.208
00:31:29.042                   : :00:31:29.042
00:37:09.333                   : :00:37:09.250
00:44:34.000                   : :00:44:34.000
00:59:55.375                   : :00:59:55.333
01:06:27.500                   : :01:06:27.500
01:14:12.083                   : :01:14:12.083
01:20:47.125                   : :01:20:47.125
01:25:03.417                   : :01:25:03.417
01:28:24.833                   : :01:28:24.833
01:36:50.875                   : :01:36:50.833
01:42:58.458                   : :01:42:58.417
01:47:41.042                   : :01:47:41.042
01:52:03.042                   : :01:52:03.000
01:58:04.750                   : :01:58:04.708
02:09:01.542                   : :02:09:01.542
02:11:40.667                   : :02:11:40.667
02:18:18.625                   : :02:18:18.625
02:24:14.333                   : :02:24:14.333
02:37:46.042                   : :02:37:46.042











Post a Comment

0 Comments