Search This Blog

American Gangster 2007 EXTENDED x264 720p Esub BluRay 6.0 Dual Audio English Hindi GOPISAHI


Format                         : Matroska
Format version                 : Version 4 / Version 2
File size                      : 1.57 GiB
Duration                       : 2 h 55 min
Overall bit rate               : 1 279 kb/s
Movie name                     : American Gangster 2007 GOPISAHI

Video
Format                         : AVC
Format/Info                    : Advanced Video Codec
Codec ID                       : V_MPEG4/ISO/AVC
Duration                       : 2 h 55 min
Bit rate                       : 899 kb/s
Width                          : 1 376 pixels
Height                         : 752 pixels
Display aspect ratio           : 1.85:1
Frame rate mode                : Constant
Frame rate                     : 23.976 (24000/1001) FPS
Color space                    : YUV
Chroma subsampling             : 4:2:0
Bit depth                      : 8 bits
Scan type                      : Progressive
Bits/(Pixel*Frame)             : 0.036
Stream size                    : 1.10 GiB (70%)
Title                          : GOPISAHI
Writing library                : x264 core 157 r2935 545de2f

Audio #1
Format                         : AAC
Format/Info                    : Advanced Audio Codec
Duration                       : 2 h 48 min
Bit rate                       : 192 kb/s
Channel(s)                     : 6 channels
Channel positions              : Front: L C R, Side: C, Back: L R
Sampling rate                  : 48.0 kHz
Frame rate                     : 46.875 FPS (1024 SPF)
Compression mode               : Lossy
Delay relative to video        : -21 ms
Stream size                    : 232 MiB (14%)
Title                          : GOPISAHI
Language                       : Hindi

Audio #2
Format                         : AAC
Duration                       : 2 h 55 min
Bit rate                       : 192 kb/s
Channel(s)                     : 6 channels
Channel positions              : Front: L C R, Side: C, Back: L R
Sampling rate                  : 48.0 kHz
Frame rate                     : 46.875 FPS (1024 SPF)
Compression mode               : Lossy
Delay relative to video        : 21 ms
Stream size                    : 242 MiB (15%)
Title                          : GOPISAHI
Language                       : English

Text
Language                       : English

Menu
00:00:00.000                   : en:00:00:00.000
00:06:48.950                   : en:00:06:48.950
00:14:07.764                   : en:00:14:07.597
00:25:43.333                   : en:00:25:43.167
00:32:20.480                   : en:00:32:20.272
00:37:33.960                   : en:00:37:33.918
00:43:49.377                   : en:00:43:49.210
00:51:26.292                   : en:00:51:26.125
00:57:22.022                   : en:00:57:21.855
01:15:31.318                   : en:01:15:31.193
01:20:53.766                   : en:01:20:53.724
01:29:01.670                   : en:01:29:01.586
01:37:22.587                   : en:01:37:22.503
01:44:02.111                   : en:01:44:01.986
01:55:34.344                   : en:01:55:34.219
02:04:59.617                   : en:02:04:59.450
02:13:01.140                   : en:02:13:00.973
02:20:09.026                   : en:02:20:08.859
02:31:53.104                   : en:02:31:52.937
02:48:01.863                   : en:02:48:01.822









Post a Comment

0 Comments