Search This Blog

Bridget Jones The Edge Of Reason 2004 x264 720p Esub BluRay 6.0 Dual Audio English Hindi GOPISAHI


Format                         : Matroska
Format version                 : Version 4 / Version 2
File size                      : 989 MiB
Duration                       : 1 h 47 min
Overall bit rate               : 1 285 kb/s
Movie name                     : Bridget Jones The Edge Of Reason 2004 GOPISAHI

Video
Format                         : AVC
Format/Info                    : Advanced Video Codec
Codec ID                       : V_MPEG4/ISO/AVC
Duration                       : 1 h 47 min
Bit rate                       : 899 kb/s
Width                          : 1 280 pixels
Height                         : 528 pixels
Display aspect ratio           : 2.40:1
Frame rate mode                : Constant
Frame rate                     : 23.976 (24000/1001) FPS
Color space                    : YUV
Chroma subsampling             : 4:2:0
Bit depth                      : 8 bits
Scan type                      : Progressive
Bits/(Pixel*Frame)             : 0.055
Stream size                    : 691 MiB (70%)
Title                          : GOPISAHI
Writing library                : x264 core 157 r2935 545de2f

Audio #1
ID                             : 2
Format                         : AAC
Duration                       : 1 h 47 min
Bit rate                       : 192 kb/s
Channel(s)                     : 6 channels
Channel positions              : Front: L C R, Side: C, Back: L R
Sampling rate                  : 48.0 kHz
Frame rate                     : 46.875 FPS (1024 SPF)
Compression mode               : Lossy
Delay relative to video        : 978 ms
Stream size                    : 148 MiB (15%)
Title                          : GOPISAHI
Language                       : Hindi

Audio #2
Format                         : AAC
Duration                       : 1 h 47 min
Bit rate                       : 192 kb/s
Channel(s)                     : 6 channels
Channel positions              : Front: L C R, Side: C, Back: L R
Sampling rate                  : 48.0 kHz
Frame rate                     : 46.875 FPS (1024 SPF)
Compression mode               : Lossy
Delay relative to video        : -21 ms
Stream size                    : 148 MiB (15%)
Title                          : GOPISAHI
Language                       : English

Text
Language                       : English

Menu
00:00:00.000                   : en:Chapter 1
00:07:07.344                   : en:Chapter 2
00:12:34.462                   : en:Chapter 3
00:18:18.598                   : en:Chapter 4
00:22:59.003                   : en:Chapter 5
00:28:36.298                   : en:Chapter 6
00:34:15.303                   : en:Chapter 7
00:42:12.155                   : en:Chapter 8
00:49:45.024                   : en:Chapter 9
00:54:07.035                   : en:Chapter 10
01:00:24.121                   : en:Chapter 11
01:08:18.303                   : en:Chapter 12
01:14:08.569                   : en:Chapter 13
01:22:00.165                   : en:Chapter 14
01:25:13.942                   : en:Chapter 15
01:33:18.927                   : en:Chapter 16
01:47:27.232                   : en:Chapter 17
















Post a Comment

0 Comments