Search This Blog

Cinderella 1950 x264 720p Esub BluRay Dual Audio Hindi English Tamil GOPISAHI

Format                         : Matroska
Format version                 : Version 4 / Version 2
File size                      : 528 MiB
Duration                       : 1 h 14 min
Overall bit rate               : 991 kb/s
Movie name                     : Cinderella 1950 GOPISAHI

Video
Format                         : AVC
Format/Info                    : Advanced Video Codec
Codec ID                       : V_MPEG4/ISO/AVC
Duration                       : 1 h 14 min
Bit rate                       : 699 kb/s
Width                          : 960 pixels
Height                         : 720 pixels
Display aspect ratio           : 16:9
Frame rate mode                : Constant
Frame rate                     : 23.976 (24000/1001) FPS
Color space                    : YUV
Chroma subsampling             : 4:2:0
Bit depth                      : 8 bits
Scan type                      : Progressive
Bits/(Pixel*Frame)             : 0.042
Stream size                    : 372 MiB (71%)
Title                          : GOPISAHI
Writing library                : x264 core 157 r2935 545de2f

Audio #1
Format                         : AAC
Duration                       : 1 h 14 min
Bit rate                       : 96.0 kb/s
Channel(s)                     : 2 channels
Channel positions              : Front: L R
Sampling rate                  : 48.0 kHz
Frame rate                     : 46.875 FPS (1024 SPF)
Compression mode               : Lossy
Delay relative to video        : 853 ms
Stream size                    : 51.2 MiB (10%)
Title                          : GOPISAHI
Language                       : Hindi

Audio #2
Format                         : AAC
Duration                       : 1 h 14 min
Bit rate                       : 96.0 kb/s
Channel(s)                     : 2 channels
Channel positions              : Front: L R
Sampling rate                  : 48.0 kHz
Frame rate                     : 46.875 FPS (1024 SPF)
Compression mode               : Lossy
Delay relative to video        : -146 ms
Stream size                    : 51.0 MiB (10%)
Title                          : GOPISAHI
Language                       : English

Audio #3
Format                         : AAC
Duration                       : 1 h 14 min
Bit rate                       : 96.0 kb/s
Channel(s)                     : 2 channels
Channel positions              : Front: L R
Sampling rate                  : 48.0 kHz
Frame rate                     : 46.875 FPS (1024 SPF)
Compression mode               : Lossy
Delay relative to video        : 853 ms
Stream size                    : 51.1 MiB (10%)
Title                          : GOPISAHI
Language                       : Tamil

Text
Language                       : English








Post a Comment

0 Comments