Search This Blog

Hulk Logy x264 720p Esub BluRay 6.0 Dual Audio English Hindi GOPISAHI

General
Unique ID                      : 71531097139584428826155766198590049407 (0x35D06360A7DF92D711B5A31C13210C7F)
Complete name                  : F:\Logy\Hulk Logy x264 720p Esub BluRay 6.0 Dual Audio English Hindi GOPISAHI\1 Hulk 2003 x264 720p Esub BluRay 6.0 Dual Audio English Hindi GOPISAHI.mkv
Format                         : Matroska
Format version                 : Version 4 / Version 2
File size                      : 1.24 GiB
Duration                       : 2 h 18 min
Overall bit rate               : 1 286 kb/s
Movie name                     : Hulk 2003 GOPISAHI
Encoded date                   : UTC 2019-03-09 05:28:43
Writing application            : mkvmerge v19.0.0 ('Brave Captain') 32-bit
Writing library                : libebml v1.3.5 + libmatroska v1.4.8

Video
ID                             : 1
Format                         : AVC
Format/Info                    : Advanced Video Codec
Format profile                 : High [email protected]
Format settings                : CABAC / 16 Ref Frames
Format settings, CABAC         : Yes
Format settings, ReFrames      : 16 frames
Codec ID                       : V_MPEG4/ISO/AVC
Duration                       : 2 h 18 min
Bit rate                       : 899 kb/s
Width                          : 1 280 pixels
Height                         : 694 pixels
Display aspect ratio           : 1.85:1
Frame rate mode                : Constant
Frame rate                     : 23.976 (24000/1001) FPS
Color space                    : YUV
Chroma subsampling             : 4:2:0
Bit depth                      : 10 bits
Scan type                      : Progressive
Bits/(Pixel*Frame)             : 0.042
Stream size                    : 889 MiB (70%)
Title                          : GOPISAHI
Writing library                : x264 core 157 r2935 545de2f
Encoding settings              : cabac=1 / ref=16 / deblock=1:0:0 / analyse=0x3:0x133 / me=umh / subme=10 / psy=1 / psy_rd=1.00:0.00 / mixed_ref=1 / me_range=24 / chroma_me=1 / trellis=2 / 8x8dct=1 / cqm=0 / deadzone=21,11 / fast_pskip=1 / chroma_qp_offset=-2 / threads=12 / lookahead_threads=2 / sliced_threads=0 / nr=0 / decimate=1 / interlaced=0 / bluray_compat=0 / constrained_intra=0 / bframes=8 / b_pyramid=2 / b_adapt=2 / b_bias=0 / direct=3 / weightb=1 / open_gop=0 / weightp=2 / keyint=240 / keyint_min=24 / scenecut=40 / intra_refresh=0 / rc_lookahead=60 / rc=2pass / mbtree=1 / bitrate=899 / ratetol=1.0 / qcomp=0.60 / qpmin=0 / qpmax=81 / qpstep=4 / cplxblur=20.0 / qblur=0.5 / ip_ratio=1.40 / aq=1:1.00
Language                       : English
Default                        : Yes
Forced                         : No
Color range                    : Limited
Color primaries                : BT.709
Transfer characteristics       : BT.709
Matrix coefficients            : BT.709

Audio #1
ID                             : 2
Format                         : AAC
Format/Info                    : Advanced Audio Codec
Format profile                 : LC
Codec ID                       : A_AAC-2
Duration                       : 2 h 18 min
Bit rate                       : 192 kb/s
Channel(s)                     : 6 channels
Channel positions              : Front: L C R, Side: C, Back: L R
Sampling rate                  : 48.0 kHz
Frame rate                     : 46.875 FPS (1024 SPF)
Compression mode               : Lossy
Delay relative to video        : 979 ms
Stream size                    : 190 MiB (15%)
Title                          : GOPISAHI
Language                       : Hindi
Default                        : Yes
Forced                         : No

Audio #2
ID                             : 3
Format                         : AAC
Format/Info                    : Advanced Audio Codec
Format profile                 : LC
Codec ID                       : A_AAC-2
Duration                       : 2 h 18 min
Bit rate                       : 192 kb/s
Channel(s)                     : 6 channels
Channel positions              : Front: L C R, Side: C, Back: L R
Sampling rate                  : 48.0 kHz
Frame rate                     : 46.875 FPS (1024 SPF)
Compression mode               : Lossy
Delay relative to video        : -21 ms
Stream size                    : 190 MiB (15%)
Title                          : GOPISAHI
Language                       : English
Default                        : No
Forced                         : No

Text
ID                             : 4
Format                         : UTF-8
Codec ID                       : S_TEXT/UTF8
Codec ID/Info                  : UTF-8 Plain Text
Duration                       : 2 h 6 min
Bit rate                       : 35 b/s
Count of elements              : 1064
Stream size                    : 32.9 KiB (0%)
Title                          : GOPISAHI
Language                       : English
Default                        : Yes
Forced                         : No

Menu
00:00:00.000                   : :0
00:04:21.178                   : :2
00:11:21.723                   : :3
00:13:55.335                   : :4
00:17:24.460                   : :5
00:20:13.087                   : :6
00:22:50.661                   : :7
00:29:17.047                   : :8
00:32:38.039                   : :9
00:37:03.138                   : :10
00:39:25.029                   : :11
00:45:13.002                   : :12
00:49:01.147                   : :13
00:54:11.290                   : :14
00:57:40.123                   : :15
00:59:53.131                   : :16
01:11:15.021                   : :17
01:16:10.733                   : :18
01:19:14.500                   : :19
01:24:54.840                   : :20
01:27:20.944                   : :21
01:32:04.519                   : :22
01:36:14.686                   : :23
01:41:42.346                   : :24
01:47:10.758                   : :25
01:49:49.083                   : :26
01:55:37.180                   : :27
02:02:55.910                   : :28
02:07:34.313                   : :29
02:08:31.412                   : :30
02:11:07.360                   : :31
02:12:41.704                   : :32





TOTAL SIZE 2.2 GB

ZIPER

https://linksclub.biz/drive/download.php?id=0d418b158b1f08c1ef0c

https://linkstaker.pw/drive/download.php?id=c7d1232851bd009ea9a6

https://links-safety.com/drive/ewpv0cfzbsmeyef6tqx6bbscp

http://www.mediafire.com/file/yj6hdyf6mk2be13/Hul0Logy_20x26i_20GOPISAHI.zip/file

2003

https://uptobox.com/iktau31rd6ud

https://megaup.net/kiUA/1_Hulk_2003_x264_720p_Esub_BluRay_6.0_Dual_Audio_English_Hindi_GOPISAHI.mkv

https://uploadfiles.pw/1d01ef7f0bffb529

https://www.indishare.me/saimifm3bsb5

https://www.oboom.com/Z2SVSRRL

1.3 GB 720P HINDI

301 MB HINDI




2009

https://megaup.net/ov3E/2_The_Incredible_Hulk_2008_x264_720p_Esub_BluRay_6.0_Dual_Audio_English_Hindi_GOPISAHI.mkv

https://uptobox.com/eyb94subhyub

https://uploadfiles.pw/f8bd0f955029729e

https://www.indishare.me/a0ievltz7z1c

https://www.oboom.com/4O1GEO6B

1 GB 720P HINDI

372 MB HINDI



Post a Comment

0 Comments