Search This Blog

Personal Shopper 2016 Criterion x264 720p Esub BluRay 6.0 Dual Audio English Hindi GOPISAHI

Format                         : Matroska
Format version                 : Version 4 / Version 2
File size                      : 971 MiB
Duration                       : 1 h 45 min
Overall bit rate               : 1 286 kb/s
Movie name                     : Personal Shopper 2016 GOPISAHI

Video
ID                             : 1
Format                         : AVC
Format/Info                    : Advanced Video Codec
Format profile                 : [email protected]
Format settings                : CABAC / 16 Ref Frames
Format settings, CABAC         : Yes
Format settings, ReFrames      : 16 frames
Codec ID                       : V_MPEG4/ISO/AVC
Duration                       : 1 h 45 min
Bit rate                       : 899 kb/s
Width                          : 1 280 pixels
Height                         : 534 pixels
Display aspect ratio           : 2.40:1
Frame rate mode                : Constant
Frame rate                     : 23.976 (24000/1001) FPS
Color space                    : YUV
Chroma subsampling             : 4:2:0
Bit depth                      : 8 bits
Scan type                      : Progressive
Bits/(Pixel*Frame)             : 0.055
Stream size                    : 676 MiB (70%)
Title                          : GOPISAHI
Writing library                : x264 core 157 r2935 545de2f

Audio #1
ID                             : 2
Format                         : AAC
Format/Info                    : Advanced Audio Codec
Format profile                 : LC
Codec ID                       : A_AAC-2
Duration                       : 1 h 45 min
Bit rate                       : 192 kb/s
Channel(s)                     : 6 channels
Channel positions              : Front: L C R, Side: C, Back: L R
Sampling rate                  : 48.0 kHz
Frame rate                     : 46.875 FPS (1024 SPF)
Compression mode               : Lossy
Delay relative to video        : 17 s 999 ms
Stream size                    : 144 MiB (15%)
Title                          : GOPISAHI
Language                       : Hindi
Default                        : Yes
Forced                         : No

Audio #2
ID                             : 3
Format                         : AAC
Format/Info                    : Advanced Audio Codec
Format profile                 : LC
Codec ID                       : A_AAC-2
Duration                       : 1 h 45 min
Bit rate                       : 192 kb/s
Channel(s)                     : 6 channels
Channel positions              : Front: L C R, Side: C, Back: L R
Sampling rate                  : 48.0 kHz
Frame rate                     : 46.875 FPS (1024 SPF)
Compression mode               : Lossy
Delay relative to video        : -1 ms
Stream size                    : 145 MiB (15%)
Title                          : GOPISAHI
Language                       : English
Default                        : No
Forced                         : No

Text
ID                             : 4
Format                         : VobSub
Muxing mode                    : zlib
Codec ID                       : S_VOBSUB
Codec ID/Info                  : Picture based subtitle format used on DVDs
Duration                       : 1 h 44 min
Bit rate                       : 8 135 b/s
Count of elements              : 922
Stream size                    : 6.08 MiB (1%)
Title                          : GOPISAHI
Language                       : English
Default                        : Yes
Forced                         : No

Menu
00:00:00.000                   : :Chapter 1
00:07:22.734                   : :Chapter 2
00:19:08.189                   : :Chapter 3
00:30:58.857                   : :Chapter 4
00:38:45.240                   : :Chapter 5
01:00:12.943                   : :Chapter 6
01:11:46.594                   : :Chapter 7
01:16:29.460                   : :Chapter 8
01:24:34.278                   : :Chapter 9
01:26:23.970                   : :Chapter 10
01:34:24.242                   : :Chapter 11












Post a Comment

0 Comments