Search This Blog

Spider-Man Into The Spider-Verse 2018 x264 720p Esub BluRay 6.0 Dual Audio Hindi English Telugu Tamil GOPISAHI

Format                         : Matroska
Format version                 : Version 4 / Version 2
File size                      : 1.38 GiB
Duration                       : 1 h 56 min
Overall bit rate               : 1 695 kb/s
Movie name                     : Spider-Man Into The Spider-Verse 2018 GOPISAHI

Video
ID                             : 1
Format                         : AVC
Format/Info                    : Advanced Video Codec
Format profile                 : [email protected]
Format settings                : CABAC / 16 Ref Frames
Format settings, CABAC         : Yes
Format settings, ReFrames      : 16 frames
Codec ID                       : V_MPEG4/ISO/AVC
Duration                       : 1 h 56 min
Bit rate                       : 899 kb/s
Width                          : 1 280 pixels
Height                         : 536 pixels
Display aspect ratio           : 2.40:1
Frame rate mode                : Constant
Frame rate                     : 23.976 (24000/1001) FPS
Color space                    : YUV
Chroma subsampling             : 4:2:0
Bit depth                      : 8 bits
Scan type                      : Progressive
Bits/(Pixel*Frame)             : 0.055
Stream size                    : 751 MiB (53%)
Title                          : GOPISAHI
Writing library                : x264 core 157 r2935 545de2f

Audio #1
ID                             : 2
Format                         : AAC
Format/Info                    : Advanced Audio Codec
Format profile                 : LC
Codec ID                       : A_AAC-2
Duration                       : 1 h 56 min
Bit rate                       : 192 kb/s
Channel(s)                     : 6 channels
Channel positions              : Front: L C R, Side: C, Back: L R
Sampling rate                  : 48.0 kHz
Frame rate                     : 46.875 FPS (1024 SPF)
Compression mode               : Lossy
Delay relative to video        : -21 ms
Stream size                    : 161 MiB (11%)
Title                          : GOPISAHI
Language                       : Hindi
Default                        : Yes
Forced                         : No

Audio #2
ID                             : 3
Format                         : AAC
Format/Info                    : Advanced Audio Codec
Format profile                 : LC
Codec ID                       : A_AAC-2
Duration                       : 1 h 56 min
Bit rate                       : 192 kb/s
Channel(s)                     : 6 channels
Channel positions              : Front: L C R, Side: C, Back: L R
Sampling rate                  : 48.0 kHz
Frame rate                     : 46.875 FPS (1024 SPF)
Compression mode               : Lossy
Delay relative to video        : -21 ms
Stream size                    : 161 MiB (11%)
Title                          : GOPISAHI
Language                       : English
Default                        : No
Forced                         : No

Audio #3
ID                             : 4
Format                         : AAC
Format/Info                    : Advanced Audio Codec
Format profile                 : LC
Codec ID                       : A_AAC-2
Duration                       : 1 h 56 min
Bit rate                       : 192 kb/s
Channel(s)                     : 6 channels
Channel positions              : Front: L C R, Side: C, Back: L R
Sampling rate                  : 48.0 kHz
Frame rate                     : 46.875 FPS (1024 SPF)
Compression mode               : Lossy
Delay relative to video        : -21 ms
Stream size                    : 161 MiB (11%)
Title                          : GOPISAHI
Language                       : Tamil
Default                        : No
Forced                         : No

Audio #4
ID                             : 5
Format                         : AAC
Format/Info                    : Advanced Audio Codec
Format profile                 : LC
Codec ID                       : A_AAC-2
Duration                       : 1 h 56 min
Bit rate                       : 192 kb/s
Channel(s)                     : 6 channels
Channel positions              : Front: L C R, Side: C, Back: L R
Sampling rate                  : 48.0 kHz
Frame rate                     : 46.875 FPS (1024 SPF)
Compression mode               : Lossy
Delay relative to video        : -21 ms
Stream size                    : 161 MiB (11%)
Title                          : GOPISAHI
Language                       : Telugu
Default                        : No
Forced                         : No

Text
ID                             : 6
Format                         : PGS
Muxing mode                    : zlib
Codec ID                       : S_HDMV/PGS
Codec ID/Info                  : Picture based subtitle format used on BDs/HD-DVDs
Duration                       : 1 h 55 min
Bit rate                       : 50.0 kb/s
Count of elements              : 2778
Stream size                    : 41.2 MiB (3%)
Title                          : GOPISAHI
Language                       : English
Default                        : Yes
Forced                         : No

Menu
00:00:00.000                   : :00:00:00.000
00:09:03.793                   : :00:09:03.793
00:14:04.719                   : :00:14:04.719
00:18:51.714                   : :00:18:51.714
00:29:39.027                   : :00:29:39.027
00:34:14.636                   : :00:34:14.636
00:40:34.432                   : :00:40:34.432
00:44:22.827                   : :00:44:22.827
00:48:06.884                   : :00:48:06.884
00:58:45.856                   : :00:58:45.855
01:06:04.461                   : :01:06:04.460
01:09:55.483                   : :01:09:55.483
01:20:00.004                   : :01:20:00.003
01:24:54.923                   : :01:24:54.923
01:33:33.399                   : :01:33:33.399
01:55:27.003                   : :01:55:26.920










 

Post a Comment

0 Comments